Adsense 1

Tuesday, February 13, 2018

Tom Petty - 1999-04-23 - Live at Docks Hamburg, Germany (HDTV/720p)


Tom Petty And The Heartbreakers -
Live at Docks Hamburg, Germany
1999-04-23
HDTV 720p (2018 Re-Broadcast)
January 2018 Mdr Re-Broadcast

Setlist:

01 - Around And Around
02 - Breakdown
03 - Call Me The Breeze
04 - Swingin'
05 - I Won't Back Down
06 - Lucille
07 - Walls
08 - Room At The Top
09 - American Girl
10 - Honey Bee
11 - Free Girl Now
12 - Free Fallin'
13 - Learning To Fly

   General #1
      Format : MPEG-TS
      File size : 5.38 GiB
      Duration : 57mn 21s
      Overall bit rate : 13.4 Mbps
   Video #5331
      ID : 5331 (0x14D3)
      Menu ID : 1 (0x1)
      Format : AVC
      Format/Info : Advanced Video Codec
      Format profile : High@L4.0
      Format settings, CABAC : Yes
      Format settings, ReFrames : 4 frames
      Codec ID : 27
      Duration : 57mn 21s
      Bit rate : 12.3 Mbps
      Width : 1 280 pixels
      Height : 720 pixels
      Display aspect ratio : 16:9
      Frame rate : 50.000 fps
      Color space : YUV
      Chroma subsampling : 4:2:0
      Bit depth : 8 bits
      Scan type : Progressive
      Bits/(Pixel*Frame) : 0.267
      Stream size : 4.93 GiB (92%)
   Audio #5336
      ID : 5336 (0x14D8)
      Menu ID : 1 (0x1)
      Format : AC-3
      Format/Info : Audio Coding 3
      Mode extension : CM (complete main)
      Codec ID : 6
      Duration : 57mn 21s
      Bit rate mode : Constant
      Bit rate : 448 Kbps
      Channel(s) : 2 channels
      Channel positions : Front: L R
      Sampling rate : 48.0 KHz
      Bit depth : 16 bits
      Compression mode : Lossy
      Stream size : 184 MiB (3%)
      Language : German
   Text #5334-100
      ID : 5334 (0x14D6)-100
      Menu ID : 1 (0x1)
      Format : Teletext
      Language : German

TomPetty_1999_Docks_Hamburg_HDTV720p.part1.rar - 1.2 GB
TomPetty_1999_Docks_Hamburg_HDTV720p.part2.rar - 1.2 GB
TomPetty_1999_Docks_Hamburg_HDTV720p.part3.rar - 1.2 GB
TomPetty_1999_Docks_Hamburg_HDTV720p.part4.rar - 119.0 MB

Monday, February 12, 2018

Judas Priest - 2010 - British Steel Live. - AXS.tv broadcast. HDTV 1080p


Judas Priest
2010
British Steel Live.
AXS.tv broadcast.

Setlist:

01 - Rapid Fire
02 - Metal Gods
03 - Breaking The Law
04 - Grinder
05 - United
06 - You Don't Have To Be Old To Be Wise
07 - Living After Midnight
08 - The Rage
09 - Steeler
10 - The Ripper
11 - Hell Patrol
12 - Freewheel Burning

      Format : MPEG-TS
      File size : 7.02 GiB
      Duration : 56mn 10s
      Overall bit rate : 17.9 Mbps
   Video #517
      ID : 517 (0x205)
      Menu ID : 1 (0x1)
      Format : MPEG Video
      Format version : Version 2
      Format profile : Main@High
      Format settings, BVOP : Yes
      Format settings, Matrix : Custom
      Format settings, GOP : M=3, N=15
      Codec ID : 2
      Duration : 56mn 9s
      Bit rate mode : Variable
      Bit rate : 16.6 Mbps
      Nominal bit rate : 65.0 Mbps
      Width : 1 920 pixels
      Height : 1 080 pixels
      Display aspect ratio : 16:9
      Frame rate : 29.970 fps
      Color space : YUV
      Chroma subsampling : 4:2:0
      Bit depth : 8 bits
      Scan type : Interlaced
      Scan order : Top Field First
      Compression mode : Lossy
      Bits/(Pixel*Frame) : 0.267
      Stream size : 6.52 GiB (93%)
   Audio #516
      ID : 516 (0x204)
      Menu ID : 1 (0x1)
      Format : AC-3
      Format/Info : Audio Coding 3
      Mode extension : CM (complete main)
      Codec ID : 129
      Duration : 56mn 9s
      Bit rate mode : Constant
      Bit rate : 384 Kbps
      Channel(s) : 6 channels
      Channel positions : Front: L C R, Side: L R, LFE
      Sampling rate : 48.0 KHz
      Bit depth : 16 bits
      Compression mode : Lossy
      Delay relative to video : 7ms
      Stream size : 154 MiB (2%)
      Language : English
   Text #517-608-1
      ID : 517 (0x205)-608-1
      Menu ID : 1 (0x1)
      Format : EIA-608
      Muxing mode : A/53 / DTVCC Transport
      Muxing mode, more info : Muxed in Video #1
      Duration : 56mn 9s
      Stream size : 0.00 Byte (0%)

links Downlaod From FileFactory
Download Click here

Autopsy - 2017-06-16 - Hellfest HD-Webcast 720p


Thanks To SBR1Z
*****/****
Autopsy
2017-06-16
Clisson, France
Val de Moine
Hellfest

Lineage: Arte Concert LIVE Webcast > Livestreamer > Avidemux > .mkv

Video: H264/1280x720p/25fps/2584Kbps
Audio: AAC/2.0/48KHz/192Kbps

Setlist:
01 - Twisted Mass of Burnt Decay
02 - In the Grip of Winter
03 - Severed Surviva
04 - Strung Up and Gutted
05 - Voices
06 - Fleshcrawl
07 - Arch Cadaver
08 - Critical Madness
09 - Burial
10 - Pagan Saviour
11 - Embalmed
12 - Ridden With Disease
13 - Destined to Fester
14 - Gasping for Air
15 - Service for a Vacant Coffin

Length: 00:59:36

links Downlaod From FileFactory
Part01 // Part02

Saturday, February 10, 2018

Beyone- A Night With Beyonce HDTV1080p


Beyone- A Night With Beyonce HDTV1080p

Setlist:

01 - Intro
02 - Crazy In Love
03 - Run The World
04 - I Care
05 - I Miss You
06 - Irreplaceable
07 - End Of Time
08 - If I Were a Boy 
09 - I Want You Know
10 - 1+1
11 - Countdown
12 - Best Thing I Never Had
13 - Party
14 - Single Ladies
15 - I Was Here
16 - Halo 
17 - Credits

C:\Users\Administrator\Documents\Beyone- A Night With Beyonce\Beyone_ANightWithBeyonce_HD\A Night with Beyonce.ts
   General #1
      ID : 1 (0x1)
      Complete name : C:\Users\Administrator\Documents\Beyone- A Night With Beyonce\Beyone_ANightWithBeyonce_HD\A Night with Beyonce.ts
      Format : MPEG-TS
      File size : 5.53 GiB
      Duration : 1h 3mn
      Overall bit rate : 12.4 Mbps
   Video #161
      ID : 161 (0xA1)
      Menu ID : 1 (0x1)
      Format : AVC
      Format/Info : Advanced Video Codec
      Format profile : High@L4.0
      Format settings, CABAC : Yes
      Format settings, ReFrames : 4 frames
      Format settings, GOP : M=1, N=48
      Codec ID : 27
      Duration : 1h 3mn
      Bit rate : 11.4 Mbps
      Width : 1 920 pixels
      Height : 1 080 pixels
      Display aspect ratio : 16:9
      Frame rate : 25.000 fps
      Color space : YUV
      Chroma subsampling : 4:2:0
      Bit depth : 8 bits
      Scan type : Interlaced
      Scan order : Top Field First
      Bits/(Pixel*Frame) : 0.220
      Stream size : 5.08 GiB (92%)
      Color primaries : BT.709-5, BT.1361, IEC 61966-2-4, SMPTE RP177
      Transfer characteristics : BT.709-5, BT.1361
      Matrix coefficients : BT.709-5, BT.1361, IEC 61966-2-4 709, SMPTE RP177
   Audio #86
      ID : 86 (0x56)
      Menu ID : 1 (0x1)
      Format : AC-3
      Format/Info : Audio Coding 3
      Mode extension : CM (complete main)
      Codec ID : 6
      Duration : 1h 3mn
      Bit rate mode : Constant
      Bit rate : 384 Kbps
      Channel(s) : 6 channels
      Channel positions : Front: L C R, Side: L R, LFE
      Sampling rate : 48.0 KHz
      Bit depth : 16 bits
      Compression mode : Lossy
      Stream size : 175 MiB (3%)
      Language : French

links Downlaod From FileFactory
Downlaod here
Part01 // Part02 // Part03 // Part04 // Part05

Sunday, February 4, 2018

Bruno Mars - 10-09-2017 - 24K Magic - Live at Apollo Theater HDTV1080p


Bruno Mars
10-09-2017
24K Magic
Live at Apollo Theater, New York, NY, USA

Setlist:

01 - Intro
02 - 24K Magic
03 - Finesse
04 - Perm
05 - Calling All My Lovelies
06 - Chunky
07 - That's What I Like
08 - Straight Up & Down
09 - Versace on the Floor
10 - Uptown Funk (Mark Ronson cover)
11 - Credits

DVD Info
Menu: Yes
Chapters (SongSelect): Yes
SoundMenu: Yes
AudioSetup: Yes (Audio 3 System (Option)): AC3/5.1, AC3 Stereo & LPCM)
DVD Made From HDTV: Yes (Excellence Video & Audio)
Video: NTSC/16:9 Widescreen
Audio1: AC3/448 Kbps/5.1 Ch
Audio2: AC3/448 Kbps/2 Ch
Audio3: LPCM/1536 Kbps/2 Ch

      Format : Matroska
      File size : 5.20 GiB
      Duration : 43mn 3s
      Overall bit rate : 17.3 Mbps
      Encoded date : UTC 2017-12-02 20:14:56
      Writing application : mkvmerge v18.0.0 ('Apricity') 64-bit
      Writing library : libebml v1.3.5 + libmatroska v1.4.8
      DURATION : 00:43:03.968000000
      NUMBER_OF_FRAMES : 242247
      NUMBER_OF_BYTES : 1068382796
      _STATISTICS_WRITING_APP : mkvmerge v18.0.0 ('Apricity') 64-bit
      _STATISTICS_WRITING_DATE_UTC : 2017-12-02 20:14:56
      _STATISTICS_TAGS : BPS DURATION NUMBER_OF_FRAMES NUMBER_OF_BYTES
   Video #1
      ID : 1
      Format : AVC
      Format/Info : Advanced Video Codec
      Format profile : High 4:2:2@L4.1
      Format settings, CABAC : Yes
      Format settings, ReFrames : 2 frames
      Codec ID : V_MPEG4/ISO/AVC
      Duration : 43mn 3s
      Bit rate mode : Constant
      Bit rate : 15.2 Mbps
      Width : 1 920 pixels
      Height : 1 080 pixels
      Display aspect ratio : 16:9
      Frame rate : 59.940 fps
      Original frame rate : 29.970 fps
      Color space : YUV
      Chroma subsampling : 4:2:2
      Bit depth : 8 bits
      Scan type : Interlaced
      Scan order : Top Field First
      Bits/(Pixel*Frame) : 0.123
      Stream size : 4.63 GiB (89%)
   Audio #2
      ID : 2
      Format : DTS
      Format/Info : Digital Theater Systems
      Format profile : MA / Core
      Codec ID : A_DTS
      Duration : 43mn 3s
      Bit rate mode : Variable
      Bit rate : 1 561 Kbps / 1 510 Kbps
      Channel(s) : 6 channels
      Channel positions : Front: L C R, Side: L R, LFE
      Sampling rate : 48.0 KHz
      Bit depth : 24 bits
      Compression mode : Lossless / Lossy
      Language : English

links Downlaod From FileFactory
Part01 // Part02 // Part03 // Part04 // Part05
Download DVD Click here

Duran Duran - Paper Gods Japan Tour 2017 1080p


Duran Duran - Paper Gods Japan Tour 2017

Setlist:

01 - Intro
02 - Paper Gods
03 - The Wild Boys
04 - I Don't Wnat Your Love
05 - A View to a Kill
06 - Come Undone
07 - Last Night in the City
08 - Only in Dreams
09 - Love Voodoo
10 - Notorious
11 - Pressure Off
12 - Hold Back the Rain
13 - Face for Today
14 - Ordinary World
15 - (Reach Up for the) Sunririse / New Moon on Monday
16 - Hungry Like the Wolf
17 - White Lines
18 - Girls on Film
19 - The Universe Alone
20 - Save a Prayer
21 - Rio

      Format : BDAV
      Format/Info : Blu-ray Video
      File size : 16.5 GiB
      Duration : 1h 53mn
      Overall bit rate : 20.9 Mbps
      Maximum Overall bit rate : 48.0 Mbps
   Video #4113
      ID : 4113 (0x1011)
      Menu ID : 1 (0x1)
      Format : MPEG Video
      Format version : Version 2
      Format profile : Main@High
      Format settings, BVOP : Yes
      Format settings, Matrix : Custom
      Format settings, GOP : M=3, N=15
      Codec ID : 2
      Duration : 1h 53mn
      Bit rate mode : Variable
      Bit rate : 19.9 Mbps
      Nominal bit rate : 24.0 Mbps
      Width : 1 920 pixels
      Height : 1 080 pixels
      Display aspect ratio : 16:9
      Frame rate : 29.970 fps
      Color space : YUV
      Chroma subsampling : 4:2:0
      Bit depth : 8 bits
      Scan type : Interlaced
      Scan order : Top Field First
      Compression mode : Lossy
      Bits/(Pixel*Frame) : 0.320
      Stream size : 15.7 GiB (95%)
   Audio #4352
      ID : 4352 (0x1100)
      Menu ID : 1 (0x1)
      Format : AC-3
      Format/Info : Audio Coding 3
      Mode extension : CM (complete main)
      Codec ID : 129
      Duration : 1h 53mn
      Bit rate mode : Constant
      Bit rate : 192 Kbps
      Channel(s) : 2 channels
      Channel positions : Front: L R
      Sampling rate : 48.0 KHz
      Bit depth : 16 bits
      Compression mode : Lossy
      Delay relative to video : -166ms
      Stream size : 155 MiB (1%)

links Download From FileFactory
Download Click here
Download DVD Click here

Saturday, February 3, 2018

Pet Shop Boys - 2017-09-15 - Rock In Rio - HDTV1080p


Pet Shop Boys
2017-09-15
Rio de Janeiro - Brazil
Duration 1h6min

Setlist:

01 - Inner Sanctum
02 - Opportunities (Let's Make Lots of Money)
03 - Burn
04 - Se A Vida E (That's The Way Life Is)
05 - West End Girls
06 - Home and Dry
07 - Vocal 
08 - The Sodom and Gomorrah Show
09 - It's a Sin
10 - Left to My Own Devices
11 - Go West (Village People cover)
12 - Domino Dancing
13 - Always on My Mind(Brenda Lee cover)

      Format : MPEG-4
      Format profile : Base Media
      Codec ID : isom
      File size : 7.67 GiB
      Duration : 1h 0mn
      Overall bit rate : 18.2 Mbps
   Video #2
      ID : 2
      Format : AVC
      Format/Info : Advanced Video Codec
      Format profile : Baseline@L4.0
      Format settings, CABAC : No
      Format settings, ReFrames : 1 frame
      Codec ID : avc1
      Codec ID/Info : Advanced Video Coding
      Duration : 1h 0mn
      Bit rate mode : Variable
      Bit rate : 18.0 Mbps
      Width : 1 920 pixels
      Height : 1 080 pixels
      Display aspect ratio : 16:9
      Frame rate mode : Variable
      Frame rate : 29.970 fps
      Minimum frame rate : 21.723 fps
      Maximum frame rate : 30.334 fps
      Color space : YUV
      Chroma subsampling : 4:2:0
      Bit depth : 8 bits
      Scan type : Progressive
      Bits/(Pixel*Frame) : 0.289
      Stream size : 7.59 GiB (99%)
      Language : English
   Audio #1
      ID : 1
      Format : AAC
      Format/Info : Advanced Audio Codec
      Format profile : LC
      Codec ID : 40
      Duration : 1h 0mn
      Bit rate mode : Variable
      Bit rate : 192 Kbps
      Maximum bit rate : 192 Kbps
      Channel(s) : 2 channels
      Channel positions : Front: L R
      Sampling rate : 48.0 KHz
      Compression mode : Lossy
      Stream size : 81.8 MiB (1%)
      Language : English

links Download From FileFactory
Download Click here
Download DVD Click here