Ads 1

Friday, November 18, 2016

Joss Stone - Rock In Rio USA 2015


Joss Stone - Rock In Rio USA 2015

Setlist:

You Had Me
Love Me
Molly Town
Could Have Been You
Karma
The Answer
Music / Jet Lag
Stuck On You
Harry's Symphony
I Put A Spell On You (Screamin’ Jay Hawkins cover)
Fell in Love With a Girl (The White Stripes cover)
Some Kind of Wonderful (Soul Brothers Six cover)

      Format : MPEG-TS
      File size : 2.96 GiB
      Duration : 1h 7mn
      Overall bit rate : 6 293 Kbps
   Video #481
      ID : 481 (0x1E1)
      Menu ID : 1 (0x1)
      Format : AVC
      Format/Info : Advanced Video Codec
      Format profile : Main@L3.1
      Format settings, CABAC : Yes
      Format settings, ReFrames : 2 frames
      Format settings, GOP : M=3, N=60
      Codec ID : 27
      Duration : 1h 7mn
      Bit rate mode : Constant
      Bit rate : 6 000 Kbps
      Width : 1 280 pixels
      Height : 720 pixels
      Display aspect ratio : 16:9
      Frame rate : 30.000 fps
      Color space : YUV
      Chroma subsampling : 4:2:0
      Bit depth : 8 bits
      Scan type : Progressive
      Bits/(Pixel*Frame) : 0.217
      Stream size : 2.75 GiB (93%)
   Audio #257
      ID : 257 (0x101)
      Menu ID : 1 (0x1)
      Format : AAC
      Format/Info : Advanced Audio Codec
      Format version : Version 4
      Format profile : LC
      Muxing mode : ADTS
      Codec ID : 15
      Duration : 1h 7mn
      Bit rate mode : Constant
      Bit rate : 128 Kbps
      Channel(s) : 2 channels
      Channel positions : Front: L R
      Sampling rate : 44.1 KHz
      Compression mode : Lossy
      Stream size : 61.6 MiB (2%)

links Free Download From FileFactory
Download Click here