Ads 1

Tuesday, February 14, 2017

Lady Gaga - Super Bowl LI (Houston, TX) - 2017 - HDTV 720p


Lady Gaga
Super Bowl LI (Houston, TX) 2017

Setlist:

01 - God Bless America/This Land Is Your Land
02 - Poker Face 
03 - Born This Way 
04 - Telephone 
05 - Just Dance 
06 - A Million Reasons
07 - Bad Romance 

   General #1
      ID : 1 (0x1)
      Format : MPEG-TS
      File size : 1.49 GiB
      Duration : 13mn 35s
      Overall bit rate : 15.7 Mbps
   Video #224
      ID : 224 (0xE0)
      Menu ID : 1 (0x1)
      Format : MPEG Video
      Format version : Version 2
      Format profile : Main@High
      Format settings, BVOP : Yes
      Format settings, Matrix : Custom
      Codec ID : 2
      Duration : 13mn 35s
      Bit rate mode : Variable
      Bit rate : 14.5 Mbps
      Nominal bit rate : 24.0 Mbps
      Width : 1 280 pixels
      Height : 720 pixels
      Display aspect ratio : 16:9
      ActiveFormatDescription : Letterbox 16:9 image
      Frame rate : 59.940 fps
      Color space : YUV
      Chroma subsampling : 4:2:0
      Bit depth : 8 bits
      Scan type : Progressive
      Compression mode : Lossy
      Bits/(Pixel*Frame) : 0.262
      Stream size : 1.37 GiB (92%)
   Audio #128
      ID : 128 (0x80)
      Menu ID : 1 (0x1)
      Format : AC-3
      Format/Info : Audio Coding 3
      Mode extension : CM (complete main)
      Codec ID : 129
      Duration : 13mn 35s
      Bit rate mode : Constant
      Bit rate : 448 Kbps
      Channel(s) : 6 channels
      Channel positions : Front: L C R, Side: L R, LFE
      Sampling rate : 48.0 KHz
      Bit depth : 16 bits
      Compression mode : Lossy
      Delay relative to video : 7ms
      Stream size : 43.6 MiB (3%)
      Language : English
   Text #224-608-1
      ID : 224 (0xE0)-608-1
      Menu ID : 1 (0x1)
      Format : EIA-608
      Muxing mode : A/53 / DTVCC Transport
      Muxing mode, more info : Muxed in Video #1
      Duration : 13mn 35s
      Stream size : 0.00 Byte (0%)

links Free Download From FileFactory
Download Click here

Sunday, February 12, 2017

Night Ranger - House of Blues (Chicago, IL, USA) - 2016 HDTV



Night Ranger
House of Blues (Chicago, IL, USA) 
2016
HD-WebDL720p

Setlist:
Touch of Madness
Sing Me Away
Four in the Morning
Growin' Up in California
Rumours in the Air
The Secret of My Success
Sentimental Street
Seven Wishes
High Road
Eddie's Comin' Out Tonight
Goodbye
Day and Night (new song, live debut)
When You Close Your Eyes
Don't Tell Me You Love Me
Sister Christian
Penny
(You Can Still) Rock in America

Media: HD WebDL
Format: MKV
Video: MPEG4 Video (H264) 1280x720 60fps 6 000 Kbps
Audio:  AAC 44100Hz stereo 128Kbps

links Free Download From FileFactory
Download here
Part01 // Part02 / Part03 // Part04 // Part05 // Part06 // Part07

David Gilmour - Europejska Stolica Kultury Wroclaw 2016 - HDTV


Thanks To Verue
*****/*****
David Gilmour
Europejska Stolica Kultury Wroclaw 2016 
HDTV1080p

Setlist:

5 A.M.
Rattle That Lock
Faces of Stone
Wish You Were Here
What Do You Want From Me
A Boat Lies Waiting
The Blue
Money
Us and Them
In Any Tongue
High Hopes

Format: .TS
Video: Mpeg-4 AVC, 1920x1080, 4800 kbps, 25 fps
Audio(1):  AC3, 384 kbps, 48 kHz, stereo
Audio(2): MP2, 192 kbps, 48 kHz, stereo

links Free Download From FileFactory
Download here
Part01 // Part02 // Part03 // Part04 // Part05

Helloween - Live at Loud Park 2015


Helloween 
Live at Loud Park 
2015

1. My God-Given Right
2. Medley:
Halloween
Sole Survivor
I Can
Are You Metal?
3. Future World

Format: MKV
Vide: AVC Video, 1920?1080, 16:9
Audio:: AAC 2.0 48 kHz

links Free Download From FileFactory
Download Click here
Part01 // Part02 // Part03